<?xml version="1.0" standalone="no"?>
<!DOCTYPE svg PUBLIC "-//W3C//DTD SVG 1.1//EN" "http://www.w3.org/Graphics/SVG/1.1/DTD/svg11.dtd" >
<svg xmlns="http://www.w3.org/2000/svg">
<metadata></metadata>
<defs>
<font id="olroundgothicregular" horiz-adv-x="1228" >
<font-face units-per-em="2048" ascent="1638" descent="-410" />
<missing-glyph horiz-adv-x="409" />
<glyph horiz-adv-x="2048" />
<glyph horiz-adv-x="2048" />
<glyph horiz-adv-x="682" />
<glyph unicode="&#xd;" horiz-adv-x="409" />
<glyph horiz-adv-x="665" d="M-256 -27h61l1117 1641h-62z" />
<glyph horiz-adv-x="563" d="M0 1126h154v-1126h51v1126h358v52h-358v129q0 53 20.5 99t55 81t81 55.5t99.5 20.5t102 -23l25 45q-61 29 -127 29q-63 0 -119.5 -24.5t-97.5 -66.5t-65.5 -98.5t-24.5 -119.5v-127h-154v-52zM639 1561q0 -20 15.5 -36t37.5 -16q20 0 35.5 15.5t15.5 38.5q0 20 -15 35.5 t-38 15.5q-20 0 -35.5 -15.5t-15.5 -37.5zM666 0h51v1178h-51v-1178z" />
<glyph horiz-adv-x="794" d="M0 1126h154v-1126h51v1126h358v52h-358v129q0 53 20.5 99t55 81t81 55.5t99.5 20.5t102 -23l25 45q-61 29 -127 29q-63 0 -119.5 -24.5t-97.5 -66.5t-65.5 -98.5t-24.5 -119.5v-127h-154v-52zM666 0h51v1792h-51v-1792z" />
<glyph unicode=" "  horiz-adv-x="409" />
<glyph unicode="&#x09;" horiz-adv-x="409" />
<glyph unicode="&#xa0;" horiz-adv-x="409" />
<glyph unicode="!" horiz-adv-x="409" d="M154 25q0 -20 14 -36t37 -16t37 15.5t14 38.5v-2q0 23 -14.5 38t-36.5 15q-23 0 -37 -15.5t-14 -37.5zM178 410h53v1177h-53v-1177z" />
<glyph unicode="&#x22;" horiz-adv-x="409" d="M102 973h52v614h-52v-614zM256 973h51v614h-51v-614z" />
<glyph unicode="#" horiz-adv-x="921" d="M51 537l819 2v51h-819v-53zM51 1253l819 2v52h-819v-54zM256 -27h51v1641h-51v-1641zM614 -27h52v1641h-52v-1641z" />
<glyph unicode="$" horiz-adv-x="870" d="M0 410q0 -141 79 -251t204 -157v-80h51v64q25 -4 49.5 -8.5t52.5 -4.5q27 0 51.5 4.5t51.5 8.5v-64h51v80q123 47 201.5 157t78.5 251q0 150 -80.5 249t-201.5 148v721q92 -43 148.5 -130t56.5 -196h53q-2 129 -73 231.5t-185 149.5v82h-51v-66q-23 6 -48.5 10.5 t-54.5 4.5q-27 0 -52.5 -4t-49.5 -11v66h-51v-82q-55 -23 -102.5 -61.5t-81.5 -88t-53 -108.5t-19 -123q0 -137 72.5 -229t185.5 -139v-777q-104 45 -168 139.5t-64 213.5h-51zM76 1204q0 106 57 193.5t150 130.5l-2 -637q-88 41 -146.5 120t-58.5 193zM332 39v776 q25 -8 50.5 -12t49.5 -8q53 -8 107 -25l-2 -731q-23 -6 -48.5 -10t-54.5 -4q-27 0 -52.5 4t-49.5 10zM332 868v678q53 16 104 17q49 0 103 -17l-2 -723q-23 8 -48.5 12.5t-50.5 8.5q-53 8 -106 24zM588 57v693q100 -45 165.5 -130t65.5 -210q0 -119 -63.5 -213.5 t-167.5 -139.5z" />
<glyph unicode="%" horiz-adv-x="1382" d="M0 1202q0 -80 25.5 -153.5t73.5 -130t114 -91t145 -34.5q80 0 145.5 34.5t114 91t74 131t25.5 154.5t-25.5 154t-74 130t-114 91t-145.5 35t-145.5 -35t-113.5 -91t-73.5 -131t-25.5 -155zM51 1204q0 68 22.5 132.5t62.5 114.5t96.5 81t125.5 31q70 0 126.5 -31t96.5 -81 t62.5 -114.5t22.5 -134.5v2q0 -70 -22.5 -134t-62.5 -114.5t-96.5 -81t-126.5 -30.5t-126 30.5t-96 81t-62.5 115t-22.5 133.5zM102 -27h62l1116 1641h-61zM666 383q0 -80 25.5 -153.5t73.5 -130t113.5 -91.5t145.5 -35t145.5 35t113.5 91.5t73.5 131t25.5 154.5 t-25.5 153.5t-73.5 130t-113.5 91.5t-145.5 35t-145.5 -35t-113.5 -91.5t-73.5 -131t-25.5 -154.5zM717 385q0 68 22.5 132.5t62.5 114.5t96 80.5t126 30.5t126 -30.5t96 -80.5t62.5 -114.5t22.5 -134.5q0 -68 -22.5 -132.5t-62.5 -114.5t-96 -80.5t-126 -30.5t-126 30.5 t-96 80.5t-62.5 114.5t-22.5 134.5z" />
<glyph unicode="&#x26;" horiz-adv-x="1409" d="M0 434q0 -96 36 -179t99.5 -146.5t146.5 -99.5t179 -36q86 0 165 28t134 85l244 246l331 -332h74l-371 369l344 348h-71l-310 -314l-534 535l176 121q59 41 92 105.5t33 142.5q0 63 -24.5 118.5t-65.5 97.5t-97.5 66.5t-119.5 24.5t-119.5 -24.5t-97.5 -66.5t-65.5 -98.5 t-24.5 -119.5t24.5 -120t67.5 -100l141 -141l-182 -125q-92 -63 -148.5 -162.5t-56.5 -222.5zM51 436q0 106 50.5 194.5t131.5 145.5l191 131l543 -538l-244 -248q-47 -49 -116.5 -72.5t-145.5 -23.5q-84 0 -159 32.5t-130 88t-88 130t-33 160.5zM205 1307q0 53 20.5 99 t55 81t81 55.5t99.5 20.5t99 -20.5t81 -55.5t55.5 -82t20.5 -100v2q0 -63 -27.5 -117.5t-75.5 -89.5l-184 -125l-149 147q-35 35 -55.5 82t-20.5 103z" />
<glyph unicode="'" horiz-adv-x="256" d="M102 973h52v614h-52v-614z" />
<glyph unicode="(" horiz-adv-x="948" d="M51 690q0 -178 62.5 -343t172 -300t259 -234.5t325.5 -146.5v53q-160 45 -300 139.5t-244.5 223.5t-164 284.5t-59.5 325.5q0 168 59.5 325t164 286t245 223t299.5 139v51q-176 -47 -325.5 -146.5t-259 -234.5t-172 -301t-62.5 -344z" />
<glyph unicode=")" horiz-adv-x="897" d="M76 1716l2 -53q160 -45 300 -138t243.5 -222t164 -286t60.5 -327t-60.5 -325.5t-164 -283.5t-243.5 -222.5t-300 -139.5v-53q174 47 324.5 146.5t260 235.5t172 301t62.5 343t-62.5 343t-172 300t-260 234.5t-326.5 146.5z" />
<glyph unicode="*" horiz-adv-x="608" d="M25 1149l26 -45l228 131v-262h51v262l227 -131l27 45l-228 131l228 131l-27 45l-227 -131v262h-51v-262l-228 131l-26 -45l229 -131z" />
<glyph unicode="+" horiz-adv-x="921" d="M51 768h385v-385h51v385h383v51h-385v385h-51v-385h-383v-51z" />
<glyph unicode="," horiz-adv-x="409" d="M102 -256l48 -18l102 282q2 4 3 8.5t1 10.5q0 20 -14.5 35.5t-36.5 15.5q-23 0 -37 -15.5t-14 -37.5q0 -16 9 -29.5t23 -18.5z" />
<glyph unicode="-" horiz-adv-x="512" d="M51 768h410v51h-410v-51z" />
<glyph unicode="." horiz-adv-x="409" d="M154 25q0 -20 14 -36t37 -16t37 15.5t14 38.5q0 20 -14.5 35.5t-36.5 15.5q-23 0 -37 -15.5t-14 -37.5z" />
<glyph unicode="/" d="M25 -27h63l1116 1641h-63z" />
<glyph unicode="0" horiz-adv-x="1433" d="M0 793q0 -160 52 -307.5t147.5 -261t226.5 -182.5t291 -69t292 69t226 182.5t146.5 262t52.5 308.5t-52.5 307t-147.5 261t-226 182.5t-291 68.5t-291 -68.5t-226.5 -182.5t-147.5 -262.5t-52 -307.5zM51 795q0 147 48 286.5t135.5 246t210 171t272.5 64.5t271.5 -64.5 t209.5 -172t136 -246t48 -287.5v2q0 -150 -48 -288t-136 -245.5t-211 -172t-270 -64.5q-150 0 -272.5 64.5t-210 172t-135.5 245.5t-48 288z" />
<glyph unicode="1" horiz-adv-x="460" d="M0 1100l37 -35l297 395v-1460h51v1614z" />
<glyph unicode="2" horiz-adv-x="1177" d="M51 0h1075v51h-944l725 670q78 72 123 169t45 212q0 106 -40 199.5t-109.5 163t-162.5 109.5t-200 40q-106 0 -199.5 -40t-163 -109.5t-109.5 -164t-40 -200.5h51q0 96 36 180t99.5 147.5t146.5 99.5t179 36q94 0 178 -36t147.5 -99.5t99.5 -147.5t36 -180 q0 -98 -38 -183.5t-103 -146.5z" />
<glyph unicode="3" horiz-adv-x="999" d="M51 422q0 -92 35 -174t96.5 -143.5t143.5 -96.5t174 -35t174 35t143.5 96.5t96 143.5t34.5 174q0 74 -22.5 141.5t-63.5 122.5t-96 96t-123 64q113 45 183.5 144.5t70.5 226.5q0 82 -31.5 154.5t-85 125.5t-126 85t-154.5 32t-155 -32t-126 -85t-85 -126t-32 -154h52 q0 72 27.5 134t74.5 109t109.5 75t134.5 28t134 -28t109.5 -75t75 -109.5t27.5 -133.5q0 -72 -27.5 -134.5t-75 -109.5t-110 -75t-133.5 -28v-51q82 0 154.5 -31.5t126 -85t85 -126t31.5 -154.5t-31.5 -154.5t-85 -126t-126 -85t-154.5 -31.5t-155 31.5t-126 85t-85 126 t-32 154.5h-51z" />
<glyph unicode="4" horiz-adv-x="1101" d="M0 332h795v-332h51v334h229v51h-231v1227zM94 385l701 1057l-2 -1057h-699z" />
<glyph unicode="5" horiz-adv-x="1177" d="M51 539q0 -117 44 -220.5t121 -180.5t179.5 -121t218.5 -44q117 0 219.5 44t179.5 121t121 180.5t44 220.5t-44 219t-121 179t-179.5 121t-219.5 44q-102 0 -193 -35t-165 -94v563h768v51h-819v-663l37 -35q72 74 167 118t205 44q106 0 199.5 -40t163.5 -110t109.5 -164 t39.5 -200t-39.5 -199.5t-109.5 -163.5t-163 -109.5t-200 -39.5q-106 0 -199 39.5t-163 109.5t-110 164t-40 201h-51z" />
<glyph unicode="6" horiz-adv-x="1126" d="M0 537q0 -117 44 -219.5t121 -179.5t179 -121t219 -44t219.5 44t179 121t120.5 180.5t44 220.5t-44 219t-120.5 179t-179 121t-219.5 44q-106 0 -203 -39l510 524h-77l-639 -663q-72 -74 -113 -173.5t-41 -213.5zM51 539q0 106 40 199t109.5 163t163 110t199.5 40 t199.5 -40t163 -110t109.5 -164t40 -200v2q0 -106 -40 -200.5t-109.5 -164.5t-162.5 -109.5t-200 -39.5q-106 0 -199.5 39.5t-163 109.5t-109.5 164t-40 201z" />
<glyph unicode="7" horiz-adv-x="1153" d="M25 0h61l1067 1587h-1077v-51h981z" />
<glyph unicode="8" horiz-adv-x="897" d="M0 422q0 -92 35 -174t96.5 -143.5t143 -96.5t174.5 -35q92 0 174 35t143 96.5t96 143.5t35 174q0 74 -22.5 141.5t-63.5 122.5t-96.5 96t-122.5 64q113 45 183.5 144.5t70.5 226.5q0 82 -32 154.5t-85 125.5t-126 85t-154 32q-82 0 -155 -32t-126 -85t-85 -126t-32 -154 q0 -127 71 -226.5t181 -144.5q-66 -23 -122 -64t-96 -96t-62.5 -122.5t-22.5 -141.5zM51 422q0 82 32 154.5t85 126t126 85t155 31.5t154.5 -31.5t125.5 -85t85 -126t32 -154.5t-32 -154.5t-85 -126t-126 -85t-154 -31.5q-82 0 -155 31.5t-126 85t-85 126t-32 154.5z M102 1217q0 72 28 134t75 109t109.5 75t134.5 28t134 -28t109 -75t75 -109.5t28 -133.5h-2q0 -72 -27 -134.5t-74 -109.5t-109.5 -75t-133.5 -28q-72 0 -134.5 28t-109.5 75t-75 109.5t-28 134.5z" />
<glyph unicode="9" horiz-adv-x="1126" d="M0 1049q0 -117 44 -219.5t121 -179.5t179 -121t219 -44q53 0 104.5 10.5t98.5 28.5l-510 -524h78l639 664q72 74 112.5 173t40.5 214q0 117 -44 219t-120.5 179t-179 121t-219.5 44t-219 -45t-179 -122t-121 -179.5t-44 -218.5zM51 1051q0 106 40 199t109.5 163t163 110 t199.5 40t199.5 -40t163 -110t109.5 -164t40 -200v2q0 -106 -40 -200.5t-109.5 -164.5t-162.5 -109.5t-200 -39.5q-106 0 -199.5 39.5t-163 109.5t-109.5 164t-40 201z" />
<glyph unicode=":" horiz-adv-x="409" d="M154 25q0 -20 14 -36t37 -16t37 15.5t14 38.5v-2q0 23 -14.5 38t-36.5 15q-23 0 -37 -15.5t-14 -37.5zM154 1151q0 -20 14 -35.5t37 -15.5t37 15t14 38q0 20 -14.5 35.5t-36.5 15.5q-23 0 -37 -15t-14 -38z" />
<glyph unicode=";" horiz-adv-x="409" d="M102 -256l48 -18l102 282q2 4 3 8t1 11v-2q0 23 -14.5 38t-36.5 15q-23 0 -37 -15.5t-14 -37.5q0 -16 9 -29.5t23 -18.5zM154 1151q0 -20 14 -35.5t37 -15.5t37 15t14 38q0 20 -14.5 35.5t-36.5 15.5q-23 0 -37 -15t-14 -38z" />
<glyph unicode="&#x3c;" horiz-adv-x="958" d="M25 793l821 -820l35 37l-783 785l783 782l-37 37z" />
<glyph unicode="=" horiz-adv-x="921" d="M51 690h819v53h-819v-53zM51 844l819 2v51h-819v-53z" />
<glyph unicode="&#x3e;" horiz-adv-x="958" d="M76 10l37 -37l819 822l-819 819l-37 -37l784 -784z" />
<glyph unicode="?" horiz-adv-x="972" d="M78 1202h51q0 74 27.5 139.5t77 114.5t115 78t138.5 29q74 0 139.5 -29t113.5 -78t77 -114.5t29 -139.5q0 -72 -29 -126t-72 -102t-92 -93t-92 -95.5t-71.5 -111t-28.5 -137.5v-127h51v129q0 70 28.5 125t71.5 103t92.5 93t92.5 95.5t71.5 110.5t28.5 138q0 84 -33 159 t-88 130t-130 88t-161 33q-84 0 -158.5 -33t-130 -88t-87 -130t-31.5 -161zM434 25q0 -20 15.5 -36t37.5 -16q20 0 36 15.5t16 38.5l-2 -2q0 23 -14.5 38t-37.5 15q-20 0 -35.5 -15.5t-15.5 -37.5z" />
<glyph unicode="@" horiz-adv-x="2252" d="M102 588q0 -141 37 -272.5t103.5 -245t160 -206.5t207 -159.5t244.5 -103.5t272 -37q213 0 398.5 80t326.5 221l-36 37q-133 -133 -309.5 -210t-379.5 -77q-201 0 -378 77t-309 209t-208.5 309t-76.5 380q0 201 76.5 378t208.5 309t309.5 209t377.5 77q201 0 378 -77 t309.5 -209t209 -309t76.5 -380q0 -31 -6 -84t-18.5 -115.5t-32 -127t-46 -117t-61 -86t-77.5 -33.5q-47 0 -82 34.5t-35 83.5v1035h-51v-342q-35 80 -92.5 147.5t-130 116.5t-159.5 76.5t-182 27.5q-127 0 -239.5 -48t-195.5 -132t-131 -196.5t-48 -239.5t48 -238.5 t131 -195.5t195.5 -132.5t239.5 -48.5q94 0 181.5 28t160 77t130 116.5t92.5 147.5v-199q0 -72 49 -121t119 -49q55 0 98 35t75.5 90.5t55 125t37 138t20.5 129t6 99.5q0 211 -80.5 398.5t-219 325.5t-326 219t-398.5 81q-141 0 -272 -37t-244.5 -103.5t-207 -159.5 t-160 -208t-103.5 -246t-37 -272zM563 590q0 117 44 219t121 179t179.5 121t218.5 44q117 0 219.5 -45t179.5 -122t121 -179t44 -219v2q0 -117 -44 -220.5t-121 -180t-179.5 -120.5t-219.5 -44t-219 44t-179 120.5t-121 180t-44 220.5z" />
<glyph unicode="A" horiz-adv-x="1433" d="M25 0h57l307 717h655l308 -717h57l-692 1614zM412 768l305 713l305 -713h-610z" />
<glyph unicode="B" horiz-adv-x="921" d="M76 0h411q90 0 169 34t138.5 93t93.5 139t34 170q0 70 -21.5 136.5t-61.5 121t-97.5 94t-127.5 58.5q117 39 186.5 137t69.5 221q0 80 -30.5 149.5t-82.5 122t-122 82t-150 29.5h-409v-1587zM127 51v768h360q80 0 150 -30.5t122 -83t81.5 -122t29.5 -149.5t-30.5 -149.5 t-82.5 -121.5t-122 -82t-150 -30h-358zM127 870v666h360q68 0 128.5 -26.5t105.5 -71.5t71.5 -105.5t26.5 -130.5v2q0 -70 -26.5 -130t-71.5 -105t-105.5 -72t-130.5 -27h-358z" />
<glyph unicode="C" horiz-adv-x="1449" d="M0 793q0 -170 64.5 -318.5t175 -260.5t260 -176.5t319.5 -64.5t318.5 64.5t261.5 177.5l-37 35q-104 -104 -243.5 -164.5t-299.5 -60.5t-299 60t-243.5 164.5t-165 245t-60.5 300.5t60.5 299t165 243.5t243.5 165t299 60.5t299 -60.5t244 -165.5l37 35 q-113 113 -261.5 177.5t-318.5 64.5t-319.5 -64.5t-260 -176t-175 -261t-64.5 -319.5z" />
<glyph unicode="D" horiz-adv-x="1280" d="M76 0h411q164 0 308.5 62.5t252 170t170 252t62.5 310.5q0 164 -62.5 308t-170 251.5t-253 170t-309.5 62.5h-409v-1587zM127 51v1485h360q154 0 289 -58.5t235.5 -158.5t159 -236.5t58.5 -289.5v2q0 -154 -58.5 -290t-159 -236.5t-236.5 -159t-290 -58.5h-358z" />
<glyph unicode="E" horiz-adv-x="948" d="M76 0h846v51h-795v768h692v51h-692v666h743v51h-794v-1587z" />
<glyph unicode="F" horiz-adv-x="897" d="M76 0h53v819h690v51h-692v666h743v51h-794v-1587z" />
<glyph unicode="G" horiz-adv-x="1638" d="M0 793q0 -170 64.5 -318.5t175 -260.5t260 -176.5t319.5 -64.5t319.5 64.5t260 176.5t175 261.5t64.5 319.5v24h-819v-51h768q-6 -154 -67.5 -290t-166 -236.5t-241.5 -158.5t-293 -58q-160 0 -299 60t-243.5 164.5t-165 245t-60.5 300.5t60.5 299t165 243.5t243.5 165 t299 60.5t299 -60.5t244 -165.5l37 35q-113 113 -261.5 177.5t-318.5 64.5t-319.5 -64.5t-260 -176t-175 -261t-64.5 -319.5z" />
<glyph unicode="H" horiz-adv-x="1331" d="M76 0h53v819h1075v-819h51v1587h-53v-717h-1075v717h-51v-1587z" />
<glyph unicode="I" horiz-adv-x="204" d="M76 0h53v1587h-53v-1587z" />
<glyph unicode="J" horiz-adv-x="204" d="M-180 -434v-51q63 0 119.5 24.5t98.5 65.5t66.5 97.5t24.5 119.5v1765h-53v-1765q0 -53 -19.5 -100.5t-54.5 -82t-82 -54t-100 -19.5z" />
<glyph unicode="K" horiz-adv-x="1050" d="M76 0h53v666l90 92l758 -758h74l-795 795l795 792h-74l-850 -850v850h-51v-1587z" />
<glyph unicode="L" horiz-adv-x="845" d="M76 0h743v51h-692v1536h-51v-1587z" />
<glyph unicode="M" horiz-adv-x="1740" d="M76 0h53v1403l741 -1430l744 1430v-1403h51v1614l-795 -1528l-794 1528v-1614z" />
<glyph unicode="N" horiz-adv-x="1331" d="M76 0h53v1460l1126 -1487v1614h-53v-1460l-1126 1487v-1614z" />
<glyph unicode="O" horiz-adv-x="1638" d="M0 793q0 -170 64.5 -318.5t175 -260.5t260 -176.5t319.5 -64.5t319.5 64.5t260 176.5t175 261.5t64.5 319.5q0 168 -64.5 317.5t-175 261t-260 176t-319.5 64.5t-319.5 -64.5t-260 -176t-175 -261t-64.5 -319.5zM51 795q0 160 60.5 299t165 243.5t243.5 165t299 60.5 t299 -60.5t243.5 -165t165 -245t60.5 -299.5v2q0 -160 -60.5 -300.5t-165 -245t-243.5 -164.5t-299 -60t-299 60t-243.5 164.5t-165 245t-60.5 300.5z" />
<glyph unicode="P" horiz-adv-x="921" d="M76 0h53v717h356v51h-358v768h360v51h-411v-1587zM485 717q90 0 170 33.5t139.5 93t93.5 139.5t34 170t-34 169t-93.5 138.5t-139.5 93t-170 33.5v-51q80 0 150 -30.5t122 -83t82.5 -122t30.5 -149.5t-30.5 -149.5t-82.5 -122t-122 -82t-150 -29.5v-51z" />
<glyph unicode="Q" horiz-adv-x="1638" d="M0 793q0 -170 64.5 -318.5t175 -260.5t260 -176.5t319.5 -64.5q162 0 304.5 58.5t252.5 161.5l191 -193h71l-225 229q104 111 164.5 255.5t60.5 310.5q0 168 -64.5 317.5t-175 261t-260 176t-319.5 64.5t-319.5 -64.5t-260 -176t-175 -261t-64.5 -319.5zM51 795 q0 160 60.5 299t165 243.5t243.5 165t299 60.5t299 -60.5t243.5 -165t165 -245t60.5 -299.5v2q0 -154 -56 -289t-155 -240l-217 221h-72l252 -258q-102 -96 -235 -150t-285 -54q-160 0 -299 60t-243.5 164.5t-165 245t-60.5 300.5z" />
<glyph unicode="R" horiz-adv-x="972" d="M76 0h53v717h297l485 -717h62l-488 717q90 0 170 33.5t139.5 93t93.5 139.5t34 170t-34 169t-93.5 138.5t-139.5 93t-170 33.5h-409v-1587zM127 768v768h360q80 0 150 -30.5t122 -83t81.5 -122t29.5 -149.5v2q0 -80 -30.5 -150.5t-82.5 -123t-122 -82t-150 -29.5h-358z " />
<glyph unicode="S" horiz-adv-x="870" d="M0 410q0 -90 34 -169t93 -138.5t139 -94.5t170 -35t169 35t138.5 94.5t93 138.5t33.5 169q0 96 -34.5 171.5t-94 131t-138.5 88.5t-165 43q-72 10 -137 37.5t-115.5 72.5t-80 107.5t-29.5 142.5q0 74 28.5 139.5t77.5 113.5t114.5 77t139.5 29t138.5 -29t113.5 -78 t77 -114.5t28 -139.5h53q0 86 -33 161t-88 130t-130 88t-161 33q-84 0 -158.5 -33t-130 -88t-88 -130t-32.5 -161q0 -90 32.5 -161.5t89 -123t130 -82t155.5 -40.5q76 -10 146.5 -40t124 -78t85 -114.5t31.5 -152.5q0 -80 -30.5 -150t-83 -122t-122 -82.5t-149.5 -30.5 t-149.5 29.5t-121.5 81.5t-82 123t-30 151h-51z" />
<glyph unicode="T" horiz-adv-x="1382" d="M25 1536h641v-1536h51v1536h641v51h-1333v-51z" />
<glyph unicode="U" horiz-adv-x="1382" d="M76 588q0 -127 48 -238.5t132 -195.5t196.5 -132.5t239.5 -48.5t238.5 48.5t195.5 132.5t132.5 196.5t48.5 239.5v997h-54v-999q0 -117 -44 -219.5t-120.5 -179t-179 -120.5t-219.5 -44t-219 44t-179 120.5t-121 180t-44 220.5v997h-51v-999z" />
<glyph unicode="V" horiz-adv-x="1433" d="M25 1587l692 -1614l692 1614h-57l-635 -1481l-635 1481h-57z" />
<glyph unicode="W" horiz-adv-x="1843" d="M25 1587l538 -1614l359 1069l358 -1069l539 1614h-56l-483 -1454l-358 1071l-359 -1071l-483 1454h-55z" />
<glyph unicode="X" horiz-adv-x="1280" d="M0 0h63l578 786l576 -786h63l-608 829l557 758h-64l-526 -717l-524 717h-64l557 -758z" />
<glyph unicode="Y" horiz-adv-x="1331" d="M25 1587l616 -846v-741h51v743l615 844h-64l-577 -794l-578 794h-63z" />
<glyph unicode="Z" d="M51 0h1127v51h-1035l983 1536h-1024v-51h932z" />
<glyph unicode="[" horiz-adv-x="385" d="M51 -129h256v53h-205v1741h205v51h-256v-1845z" />
<glyph unicode="\" d="M25 1614l1116 -1641h63l-1116 1641h-63z" />
<glyph unicode="]" horiz-adv-x="385" d="M76 -78v-51h258v1845h-258v-53h207v-1741h-207z" />
<glyph unicode="^" horiz-adv-x="768" d="M76 1356l35 -39l274 229l272 -229l35 41l-309 256z" />
<glyph unicode="_" d="M0 -76v-53h1229v53h-1229z" />
<glyph unicode="`" horiz-adv-x="638" d="M76 1569l463 -256l24 45l-461 256z" />
<glyph unicode="a" horiz-adv-x="1306" d="M0 588q0 -127 48 -238.5t131 -195.5t195.5 -132.5t239.5 -48.5q94 0 181.5 28t160 77t130 116.5t92.5 147.5v-342h51v1178h-51v-342q-35 80 -92.5 147.5t-130 116.5t-159.5 76.5t-182 27.5q-127 0 -239.5 -48t-195.5 -132t-131 -196.5t-48 -239.5zM51 590q0 117 44 219 t121 179t179.5 121t218.5 44q117 0 219.5 -45t179.5 -122t121 -179t44 -219v2q0 -117 -44 -220.5t-121 -180t-179.5 -120.5t-219.5 -44t-219 44t-179 120.5t-121 180t-44 220.5z" />
<glyph unicode="b" horiz-adv-x="1306" d="M76 0h53v342q35 -80 92.5 -147.5t130 -116.5t159.5 -77t181 -28q127 0 238.5 48.5t195.5 132.5t132.5 196.5t48.5 239.5t-48.5 238.5t-132.5 195.5t-196.5 132t-239.5 48q-94 0 -180 -27.5t-158.5 -76.5t-130 -117t-94.5 -147v956h-51v-1792zM127 590q0 117 44 219 t121 179t180 121t220 44t219.5 -45t179 -122t120.5 -179t44 -219l-2 2q0 -117 -44 -220.5t-120.5 -180t-179 -120.5t-219.5 -44t-219 44t-179 120.5t-121 180t-44 220.5z" />
<glyph unicode="c" horiz-adv-x="1232" d="M0 588q0 -127 48 -238.5t131 -195.5t195.5 -132.5t239.5 -48.5q96 0 183.5 28t161 79t131 119.5t92.5 152.5l-47 21q-33 -78 -85.5 -141.5t-120 -109.5t-147.5 -71.5t-168 -25.5q-117 0 -219 44t-179 120.5t-121 180t-44 220.5t44 219t121 179t179.5 121t218.5 44 q88 0 168 -25.5t147.5 -71.5t120 -110.5t85.5 -140.5l47 20q-35 82 -92.5 152t-131 121t-160.5 78.5t-184 27.5q-127 0 -239.5 -48t-195.5 -132t-131 -196.5t-48 -239.5z" />
<glyph unicode="d" horiz-adv-x="1306" d="M0 588q0 -127 48 -238.5t131 -195.5t195.5 -132.5t239.5 -48.5q94 0 181.5 28t160 77t130 116.5t92.5 147.5v-342h51v1792h-51v-956q-35 80 -92.5 147.5t-130 116.5t-159.5 76.5t-182 27.5q-127 0 -239.5 -48t-195.5 -132t-131 -196.5t-48 -239.5zM51 590q0 117 44 219 t121 179t179.5 121t218.5 44q117 0 219.5 -45t179.5 -122t121 -179t44 -219v2q0 -117 -44 -220.5t-121 -180t-179.5 -120.5t-219.5 -44t-219 44t-179 120.5t-121 180t-44 220.5z" />
<glyph unicode="e" d="M0 588q0 -127 48 -238.5t131 -195.5t195.5 -132.5t239.5 -48.5q96 0 183.5 28t161 79t131 119.5t92.5 152.5l-47 21q-33 -78 -85.5 -141.5t-120 -109.5t-147.5 -71.5t-168 -25.5q-115 0 -214 42t-174.5 114.5t-122 171t-52.5 210.5h1178v27q0 127 -48 238.5t-131 195.5 t-196 132t-240 48t-239.5 -48t-195.5 -132t-131 -196.5t-48 -239.5zM51 614q6 113 52.5 211.5t122 171t175 114.5t213.5 42q113 0 213.5 -42t176 -114.5t122 -171t52.5 -211.5h-1127z" />
<glyph unicode="f" horiz-adv-x="563" d="M0 1126h154v-1126h51v1126h358v52h-358v129q0 53 20.5 99t55 81t81 55.5t99.5 20.5t102 -23l27 45q-63 29 -129 29q-63 0 -119.5 -24.5t-97.5 -66.5t-65.5 -98.5t-24.5 -119.5v-127h-154v-52z" />
<glyph unicode="g" horiz-adv-x="1306" d="M0 588q0 -127 48 -238.5t131 -195.5t195.5 -132.5t239.5 -48.5q94 0 181.5 28t160 77t130 116.5t92.5 147.5v-215q0 -117 -44 -219.5t-121 -179t-179.5 -120.5t-219.5 -44q-88 0 -167.5 25.5t-147.5 71.5t-120 109.5t-85 141.5l-47 -21q35 -84 91.5 -152.5t130 -119.5 t161.5 -78.5t184 -27.5q127 0 240 48t196 132t131 196.5t48 239.5v1049h-51v-342q-35 80 -92.5 147.5t-130 116.5t-159.5 76.5t-182 27.5q-127 0 -239.5 -48t-195.5 -132t-131 -196.5t-48 -239.5zM51 590q0 117 44 219t121 179t179.5 121t218.5 44q117 0 219.5 -45 t179.5 -122t121 -179t44 -219v2q0 -117 -44 -220.5t-121 -180t-179.5 -120.5t-219.5 -44t-219 44t-179 120.5t-121 180t-44 220.5z" />
<glyph unicode="h" horiz-adv-x="1177" d="M76 0h53v692q0 94 36 178t98.5 147.5t146.5 99.5t180 36q94 0 178 -36t147.5 -99.5t99.5 -147.5t36 -180v-690h51v692q0 106 -40 199.5t-109.5 163t-164 109.5t-200.5 40q-76 0 -145.5 -21.5t-129 -59.5t-107.5 -91t-79 -117v877h-51v-1792z" />
<glyph unicode="i" horiz-adv-x="256" d="M76 1485q0 -23 15 -37t38 -14q20 0 35.5 14t15.5 37t-15 37t-38 14q-20 0 -35.5 -14.5t-15.5 -36.5zM102 0h52v1178h-52v-1178z" />
<glyph unicode="j" horiz-adv-x="256" d="M-154 -436v-51q63 0 120 24.5t97.5 66.5t65.5 98t25 120v-2v1358h-52v-1358q0 -53 -20.5 -99.5t-55 -81t-80.5 -55t-100 -20.5zM76 1485q0 -23 15 -37t38 -14q20 0 35.5 14t15.5 37t-15 37t-38 14q-20 0 -35.5 -14.5t-15.5 -36.5z" />
<glyph unicode="k" horiz-adv-x="843" d="M76 0h53v461l90 92l553 -553h72l-588 590l588 588h-72l-645 -646v1260h-51v-1792z" />
<glyph unicode="l" horiz-adv-x="204" d="M76 0h53v1792h-53v-1792z" />
<glyph unicode="m" horiz-adv-x="1740" d="M76 0h53v795q0 74 27.5 139t77 113.5t115 77t138.5 28.5q74 0 139.5 -28.5t113.5 -78t77 -115t29 -138.5v-793h51v795q0 74 27.5 139t77 113.5t115 77t138.5 28.5q74 0 139.5 -28.5t113.5 -78t77 -115t29 -138.5v-793h51v795q0 84 -33 158.5t-88 130t-130 88t-161 32.5 q-66 0 -125 -20.5t-109 -55t-89 -85t-60 -107.5q-23 57 -60.5 107.5t-87.5 85t-110.5 55t-126.5 20.5q-117 0 -211 -58.5t-147 -154.5v187h-51v-1178z" />
<glyph unicode="n" horiz-adv-x="1177" d="M76 0h53v692q0 94 36 178t98.5 147.5t146.5 99.5t180 36q94 0 178 -36t147.5 -99.5t99.5 -147.5t36 -180v-690h51v692q0 106 -40 199.5t-109.5 163t-164 109.5t-200.5 40q-76 0 -145.5 -21.5t-129 -59.5t-107.5 -91t-79 -117v263h-51v-1178z" />
<glyph unicode="o" d="M0 588q0 -127 48 -238.5t131 -195.5t195.5 -132.5t239.5 -48.5t240 48.5t196 132.5t131 196.5t48 239.5t-48 238.5t-131 195.5t-196 132t-240 48t-239.5 -48t-195.5 -132t-131 -196.5t-48 -239.5zM51 590q0 117 44 219t121 179t179.5 121t218.5 44q117 0 219.5 -45 t179.5 -122t121 -179t44 -219v2q0 -117 -44 -220.5t-121 -180t-179.5 -120.5t-219.5 -44t-219 44t-179 120.5t-121 180t-44 220.5z" />
<glyph unicode="p" horiz-adv-x="1306" d="M76 -461h53v803q35 -80 92.5 -147.5t130 -116.5t159.5 -77t181 -28q127 0 238.5 48.5t195.5 132.5t132.5 196.5t48.5 239.5t-48.5 238.5t-132.5 195.5t-196.5 132t-239.5 48q-94 0 -180 -27.5t-158.5 -76.5t-130 -117t-94.5 -147v342h-51v-1639zM127 590q0 117 44 219 t121 179t180 121t220 44t219.5 -45t179 -122t120.5 -179t44 -219l-2 2q0 -117 -44 -220.5t-120.5 -180t-179 -120.5t-219.5 -44t-219 44t-179 120.5t-121 180t-44 220.5z" />
<glyph unicode="q" horiz-adv-x="1306" d="M0 588q0 -127 48 -238.5t131 -195.5t195.5 -132.5t239.5 -48.5q94 0 181.5 28t160 77t130 116.5t92.5 147.5v-803h51v1639h-51v-342q-35 80 -92.5 147.5t-130 116.5t-159.5 76.5t-182 27.5q-127 0 -239.5 -48t-195.5 -132t-131 -196.5t-48 -239.5zM51 590q0 117 44 219 t121 179t179.5 121t218.5 44q117 0 219.5 -45t179.5 -122t121 -179t44 -219v2q0 -117 -44 -220.5t-121 -180t-179.5 -120.5t-219.5 -44t-219 44t-179 120.5t-121 180t-44 220.5z" />
<glyph unicode="r" horiz-adv-x="589" d="M76 0h53v692q0 94 36 178t98.5 147.5t146.5 99.5t180 36v51q-154 0 -277 -80t-186 -209v263h-51v-1178z" />
<glyph unicode="s" horiz-adv-x="768" d="M51 307q0 -70 26.5 -130t72 -105t105.5 -72t130 -27q68 0 128 27t105.5 72t72 105t26.5 130q0 74 -26.5 132.5t-72 99.5t-105.5 66.5t-126 33.5q-53 6 -100 26.5t-82 52.5t-56.5 77t-21.5 102q0 51 20.5 98t55.5 82t82 55.5t100 20.5q51 0 98 -20.5t81 -55.5t54.5 -82 t20.5 -100h53q0 63 -24.5 119.5t-66.5 98.5t-98.5 66.5t-119.5 24.5t-118.5 -24.5t-97.5 -66.5t-66.5 -98.5t-24.5 -119.5q0 -68 24.5 -121t65.5 -91t97 -61.5t118 -31.5q57 -8 108.5 -29.5t90 -57.5t62.5 -85t24 -111q0 -59 -22.5 -110.5t-60.5 -89t-90.5 -60t-109.5 -22.5 t-108.5 22.5t-89.5 60t-60.5 89t-22.5 110.5h-51z" />
<glyph unicode="t" horiz-adv-x="665" d="M0 1126h307v-1126h51v1126h308v52h-308v409h-51v-409h-307v-52z" />
<glyph unicode="u" horiz-adv-x="1177" d="M76 485q0 -106 40 -199t109.5 -163t163.5 -110t201 -40q76 0 145.5 21.5t129 59.5t107.5 91.5t79 116.5v-262h51v1178h-53v-693q0 -96 -36 -179t-98.5 -146.5t-146.5 -99t-180 -35.5t-179 35.5t-146.5 99t-99.5 147.5t-36 180v691h-51v-693z" />
<glyph unicode="v" horiz-adv-x="1126" d="M25 1178l538 -1205l539 1205h-58l-481 -1080l-481 1080h-57z" />
<glyph unicode="w" horiz-adv-x="1638" d="M25 1178l462 -1205l332 885l332 -885l463 1205h-55l-406 -1063l-334 884l-334 -884l-405 1063h-55z" />
<glyph unicode="x" horiz-adv-x="1075" d="M0 0h66l473 580l471 -580h65l-504 621l453 557h-66l-421 -516l-420 516h-66l453 -557z" />
<glyph unicode="y" horiz-adv-x="1126" d="M25 1178l512 -1178l-203 -461h57l711 1639h-58l-481 -1117l-481 1117h-57z" />
<glyph unicode="z" horiz-adv-x="1075" d="M51 0h973v51h-870l819 1127h-871v-52h768z" />
<glyph unicode="{" horiz-adv-x="385" d="M51 793q20 -10 35.5 -24.5t15.5 -51.5v-692q0 -63 45.5 -108.5t108.5 -45.5h51v53h-51q-43 0 -72.5 30t-29.5 73v690q0 29 -8.5 46t-22.5 30q14 14 22.5 31.5t8.5 45.5v693q0 41 29.5 71.5t72.5 30.5h51v51h-51q-63 0 -108.5 -45t-45.5 -110v-691q0 -37 -15 -52t-36 -25z " />
<glyph unicode="|" horiz-adv-x="358" d="M154 -78h51v1743h-51v-1743z" />
<glyph unicode="}" horiz-adv-x="385" d="M76 -78v-51h53q63 0 108.5 45t45.5 111v690q0 37 14 52.5t37 25.5q-23 10 -38 24.5t-15 50.5v693q0 63 -44 108t-110 45h-51v-53h53q41 0 71.5 -29.5t30.5 -72.5v-691q0 -29 7.5 -46t21.5 -31q-14 -12 -22.5 -30t-8.5 -46v-692q0 -41 -29.5 -72t-72.5 -31h-51z" />
<glyph unicode="~" horiz-adv-x="768" d="M76 1460h53v25q0 18 23.5 48t76.5 30q37 0 73 -25t73 -53.5t77 -53t85 -24.5q39 0 67.5 12.5t48 31.5t29.5 42t10 43v27h-53v-27q0 -18 -23.5 -48t-78.5 -30q-37 0 -73 24.5t-73 53.5t-77 53.5t-85 24.5q-37 0 -65.5 -12.5t-48 -32t-29.5 -42t-10 -42.5v-25z" />
<glyph unicode="&#xa1;" horiz-adv-x="409" d="M154 1151q0 -20 14 -35.5t37 -15.5t37 15t14 38q0 20 -14.5 35.5t-36.5 15.5q-23 0 -37 -15t-14 -38zM178 -410h51v1178h-51v-1178z" />
<glyph unicode="&#xa2;" horiz-adv-x="1284" d="M51 895q0 -123 46 -232.5t126 -192.5t187.5 -133t230.5 -54v-207h51v207q92 4 175 32.5t153 78.5t124 117.5t89 147.5l-47 21q-31 -74 -81 -135.5t-114.5 -107.5t-140.5 -72.5t-160 -30.5v1124q84 -4 160 -30.5t140.5 -72.5t114.5 -107.5t81 -135.5l47 21 q-35 80 -89 147.5t-124 117.5t-154 78.5t-176 32.5v156h-51v-156q-123 -4 -229.5 -54t-186.5 -133t-126 -192.5t-46 -234.5zM102 897q0 113 42 213t115 176t171 122t211 50l-2 -1124q-113 4 -210 50t-170 122t-115 176t-42 215z" />
<glyph unicode="&#xa3;" horiz-adv-x="716" d="M51 1126h154v-999q0 -35 -15.5 -50.5t-35.5 -25.5h71q31 27 31 78v997h256v52h-256v129q0 53 20.5 99t55.5 81t81 55.5t99 20.5t102 -23l27 45q-63 29 -129 29q-63 0 -119.5 -24.5t-97.5 -66.5t-65.5 -98.5t-24.5 -119.5v-127h-154v-52zM102 0h564v51h-564v-51z" />
<glyph unicode="&#xa5;" horiz-adv-x="1331" d="M25 1587l616 -846h-590v-51h590v-102h-590v-51h590v-537h51v539h588v51h-590v102h590v51h-590l617 844h-64l-577 -794l-578 794h-63z" />
<glyph unicode="&#xa7;" horiz-adv-x="921" d="M51 180q0 -86 33 -160.5t88 -130t130 -88t159 -32.5t158.5 32.5t130 88t88 130t32.5 160.5q0 125 -60 210t-159 136l66 242l-307 86q-61 18 -117.5 47t-98.5 72t-67 100t-25 131t28 139.5t77 113.5t114.5 77t139.5 29t139.5 -29t114.5 -78t76.5 -114.5t27.5 -139.5h51 q0 86 -32.5 161t-88 130t-130 88t-158.5 33t-159 -33t-130 -88t-88 -130t-33 -161q0 -125 60.5 -210t158.5 -136l-65 -242l307 -86q61 -18 117.5 -47.5t98.5 -72.5t66.5 -99.5t24.5 -130.5t-27.5 -139.5t-76.5 -113.5t-114.5 -76.5t-139.5 -28.5t-139.5 28.5t-114.5 77.5 t-77 114.5t-28 139.5h-51zM268 651l47 183q20 -10 40 -16.5t40 -12.5l258 -74l-47 -182q-20 10 -39.5 16t-40.5 13z" />
<glyph unicode="&#xa8;" horiz-adv-x="768" d="M76 1561q0 -20 15 -36t38 -16q20 0 35.5 15.5t15.5 38.5h-2q0 20 -14 35.5t-37 15.5q-20 0 -35.5 -15.5t-15.5 -37.5zM588 1561q0 -20 15 -36t38 -16q20 0 35.5 15.5t15.5 38.5q0 20 -15 35.5t-38 15.5q-20 0 -35.5 -15.5t-15.5 -37.5z" />
<glyph unicode="&#xa9;" horiz-adv-x="768" d="M25 1253q0 -74 28.5 -139t77.5 -113.5t114.5 -77t139.5 -28.5t139.5 28.5t113.5 78t76.5 114.5t28.5 139t-28.5 139.5t-77.5 113.5t-114.5 77t-139.5 29t-139.5 -29t-113.5 -78t-76.5 -114.5t-28.5 -139.5zM76 1255q0 63 24.5 119t66.5 97.5t98.5 66.5t119.5 25 t118.5 -25t97.5 -66.5t66.5 -98t24.5 -120.5l-2 2q0 -63 -24.5 -119.5t-65.5 -98.5t-97.5 -66.5t-119.5 -24.5t-118.5 24.5t-97.5 66.5t-66.5 98.5t-24.5 119.5zM160 1253q0 -47 17.5 -87t48 -70.5t71.5 -48t88 -17.5q92 0 170 80l-35 35q-63 -63 -137 -64q-35 0 -66.5 13.5 t-55 37t-37 55.5t-13.5 68q0 35 13.5 67t37 55.5t55 36.5t68.5 13q35 0 67.5 -14t67.5 -49l35 35q-78 80 -172 80q-47 0 -87 -17.5t-70.5 -48.5t-48 -72t-17.5 -88z" />
<glyph unicode="&#xab;" horiz-adv-x="1470" d="M25 793l821 -820l35 37l-783 785l783 782l-37 37zM537 793l821 -820l35 37l-783 785l783 782l-37 37z" />
<glyph unicode="&#xad;" horiz-adv-x="512" d="M51 768h410v51h-410v-51z" />
<glyph unicode="&#xae;" horiz-adv-x="768" d="M25 1253q0 -74 28.5 -139t77.5 -113.5t114.5 -77t139.5 -28.5t139.5 28.5t113.5 78t76.5 114.5t28.5 139t-28.5 139.5t-77.5 113.5t-114.5 77t-139.5 29t-139.5 -29t-113.5 -78t-76.5 -114.5t-28.5 -139.5zM76 1255q0 63 24.5 119t66.5 97.5t98.5 66.5t119.5 25 t118.5 -25t97.5 -66.5t66.5 -98t24.5 -120.5l-2 2q0 -63 -24.5 -119.5t-65.5 -98.5t-97.5 -66.5t-119.5 -24.5t-118.5 24.5t-97.5 66.5t-66.5 98.5t-24.5 119.5zM256 1051h51v178h45l121 -178h62l-125 182q41 10 68.5 45t27.5 80q0 53 -38 90t-91 37h-121v-434zM307 1280 v154h70q33 0 55.5 -22.5t22.5 -53.5q0 -33 -22.5 -55.5t-55.5 -22.5h-70z" />
<glyph unicode="&#xb0;" horiz-adv-x="460" d="M76 1458q0 -63 45 -108t110 -45q63 0 108.5 44.5t45.5 110.5q0 63 -45 108.5t-111 45.5q-63 0 -108 -45t-45 -111zM127 1460q0 41 30.5 72t73.5 31q41 0 72 -31t31 -74l-2 2q0 -43 -30 -73.5t-73 -30.5q-41 0 -71.5 30.5t-30.5 73.5z" />
<glyph unicode="&#xb4;" horiz-adv-x="638" d="M76 1356l26 -43l461 256l-26 45z" />
<glyph unicode="&#xb6;" horiz-adv-x="614" d="M25 1305q0 -63 24.5 -119t66.5 -97.5t98 -66.5t120 -25l51 2v615h-53q-63 0 -118.5 -24.5t-97.5 -66.5t-66.5 -98.5t-24.5 -119.5zM383 -129h51v1743h-51v-1743zM485 -129h54v1743h-54v-1743z" />
<glyph unicode="&#xb7;" horiz-adv-x="409" d="M154 793q0 -20 14 -36t37 -16t37 15.5t14 38.5q0 20 -14.5 35.5t-36.5 15.5q-23 0 -37 -15.5t-14 -37.5z" />
<glyph unicode="&#xbb;" horiz-adv-x="1470" d="M76 10l37 -37l819 822l-819 819l-37 -37l784 -784zM588 10l37 -37l819 822l-819 819l-37 -37l784 -784z" />
<glyph unicode="&#xbf;" horiz-adv-x="972" d="M76 -27q0 -84 32.5 -158.5t88 -130t130 -88t160.5 -32.5q84 0 159 32.5t130 88t87 130t32 160.5l2 -2h-53q0 -74 -28 -139t-77 -113.5t-114.5 -77t-139.5 -28.5t-139 28.5t-113.5 78t-77 115t-28.5 138.5q0 70 28.5 125.5t71.5 103.5t92.5 93t92.5 95t71.5 110.5 t28.5 138.5v127h-51v-129q0 -72 -29 -126t-72 -102.5t-92 -93.5t-92 -95t-71.5 -110.5t-28.5 -138.5zM434 1151q0 -20 15.5 -35.5t37.5 -15.5q20 0 36 15t16 38q0 20 -15.5 35.5t-38.5 15.5q-20 0 -35.5 -15t-15.5 -38z" />
<glyph unicode="&#xc0;" horiz-adv-x="1433" d="M25 0h57l307 717h655l308 -717h57l-692 1614zM412 768l305 713l305 -713h-610zM461 1927l461 -256l24 45l-461 256z" />
<glyph unicode="&#xc1;" horiz-adv-x="1433" d="M25 0h57l307 717h655l308 -717h57l-692 1614zM412 768l305 713l305 -713h-610zM485 1714l27 -43l461 256l-27 45z" />
<glyph unicode="&#xc2;" horiz-adv-x="1433" d="M25 0h57l307 717h655l308 -717h57l-692 1614zM410 1714l32 -39l275 230l274 -230l33 41l-307 256zM412 768l305 713l305 -713h-610z" />
<glyph unicode="&#xc3;" horiz-adv-x="1433" d="M25 0h57l307 717h655l308 -717h57l-692 1614zM410 1767h51v25q0 18 23.5 48t78.5 30q37 0 72 -24.5t71.5 -53.5t76.5 -53.5t87 -24.5q37 0 66 12.5t48.5 32t29.5 42t10 42.5v27h-51v-27q0 -18 -23.5 -48t-79.5 -30q-37 0 -72.5 25t-72.5 53.5t-77 53t-85 24.5 q-37 0 -65.5 -12.5t-48 -31.5t-29.5 -42t-10 -43v-25zM412 768l305 713l305 -713h-610z" />
<glyph unicode="&#xc4;" horiz-adv-x="1433" d="M25 0h57l307 717h655l308 -717h57l-692 1614zM410 1765q0 -20 14 -35.5t37 -15.5t37 15t14 38q0 20 -14.5 36t-36.5 16q-23 0 -37 -15.5t-14 -38.5zM412 768l305 713l305 -713h-610zM922 1765q0 -20 14 -35.5t37 -15.5t37 15t14 38q0 20 -14.5 36t-36.5 16 q-23 0 -37 -15.5t-14 -38.5z" />
<glyph unicode="&#xc5;" horiz-adv-x="1433" d="M25 0h57l307 717h655l308 -717h57l-692 1614zM412 768l305 713l305 -713h-610zM563 1868q0 -63 45 -108.5t109 -45.5q63 0 108 45t45 111q0 63 -45 108t-108 45t-108.5 -45t-45.5 -110zM614 1870q0 41 30 71.5t73 30.5t72.5 -30.5t29.5 -73.5v2q0 -43 -29.5 -74 t-72.5 -31t-73 31t-30 74z" />
<glyph unicode="&#xc6;" horiz-adv-x="2099" d="M25 0h65l606 819h508v-819h844v51h-795v768h693v51h-693v666h744v51h-795zM733 870l471 635v-635h-471z" />
<glyph unicode="&#xc7;" horiz-adv-x="1449" d="M0 793q0 -166 61.5 -312.5t169 -257t253 -177t311.5 -71.5v-155l28 -29q31 31 74 31q41 0 71.5 -31t30.5 -74q0 -63 -45 -108t-110 -45q-41 0 -72 30.5t-31 73.5h-51q0 -66 45 -110.5t111 -44.5q43 0 80 16t64.5 44t44 65.5t16.5 80.5q0 63 -45 108.5t-111 45.5 q-25 0 -51 -10v112q164 4 305 67.5t250 172.5l-37 35q-104 -104 -243.5 -164.5t-299.5 -60.5t-299 60t-243.5 164.5t-165 245t-60.5 300.5t60.5 299t165 243.5t243.5 165t299 60.5t299 -60.5t244 -165.5l37 35q-113 113 -261.5 177.5t-318.5 64.5t-319.5 -64.5t-260 -176 t-175 -261t-64.5 -319.5z" />
<glyph unicode="&#xc8;" horiz-adv-x="972" d="M76 0h846v51h-795v768h692v51h-692v666h743v51h-794v-1587zM256 1927l461 -256l26 45l-462 256z" />
<glyph unicode="&#xc9;" horiz-adv-x="972" d="M76 0h846v51h-795v768h692v51h-692v666h743v51h-794v-1587zM281 1714l26 -43l461 256l-27 45z" />
<glyph unicode="&#xca;" horiz-adv-x="972" d="M76 0h846v51h-795v768h692v51h-692v666h743v51h-794v-1587zM178 1714l35 -39l274 230l273 -230l35 41l-310 256z" />
<glyph unicode="&#xcb;" horiz-adv-x="972" d="M76 0h846v51h-795v768h692v51h-692v666h743v51h-794v-1587zM178 1765q0 -20 15.5 -35.5t37.5 -15.5q20 0 36 15.5t16 37.5h-2q0 20 -14.5 36t-37.5 16q-20 0 -35.5 -15.5t-15.5 -38.5zM690 1765q0 -20 15.5 -35.5t37.5 -15.5q20 0 36 15t16 38q0 20 -15.5 36t-38.5 16 q-20 0 -35.5 -15.5t-15.5 -38.5z" />
<glyph unicode="&#xcc;" horiz-adv-x="204" d="M-154 1927l461 -256l27 45l-463 256zM76 0h51v1587h-51v-1587z" />
<glyph unicode="&#xcd;" horiz-adv-x="204" d="M-129 1714l27 -43l460 256l-26 45zM76 0h53v1587h-53v-1587z" />
<glyph unicode="&#xce;" horiz-adv-x="204" d="M-205 1714l33 -39l274 230l275 -230l33 41l-308 256zM76 0h51v1587h-51v-1587z" />
<glyph unicode="&#xcf;" horiz-adv-x="204" d="M-129 1765q0 -20 15.5 -35.5t37.5 -15.5q20 0 35.5 15.5t15.5 37.5h-2q0 20 -14 36t-37 16q-20 0 -35.5 -15.5t-15.5 -38.5zM76 0h53v1587h-53v-1587zM229 1765q0 -20 15.5 -35.5t38.5 -15.5q20 0 35.5 15t15.5 38q0 20 -15.5 36t-37.5 16q-20 0 -36 -15.5t-16 -38.5z " />
<glyph unicode="&#xd1;" horiz-adv-x="1331" d="M76 0h53v1460l1126 -1487v1614h-53v-1460l-1126 1487v-1614zM358 1767h52v25q0 18 23.5 48t78.5 30q37 0 71.5 -24.5t71.5 -53.5t77 -53.5t87 -24.5q37 0 65.5 12.5t48 32t30 42t10.5 42.5v27h-51v-27q0 -18 -24 -48t-79 -30q-37 0 -72.5 25t-72.5 53.5t-77 53t-85 24.5 q-37 0 -65.5 -12.5t-48 -31.5t-30 -42t-10.5 -43v-25z" />
<glyph unicode="&#xd2;" horiz-adv-x="1638" d="M0 793q0 -170 64.5 -318.5t175 -260.5t260 -176.5t319.5 -64.5t319.5 64.5t260 176.5t175 261.5t64.5 319.5v-2q0 170 -64.5 319.5t-175 261t-260 176t-319.5 64.5t-319.5 -64.5t-260 -176t-175 -261t-64.5 -319.5zM51 795q0 160 60.5 299t165 243.5t243.5 165t299 60.5 t299 -60.5t243.5 -165t165 -245t60.5 -299.5v2q0 -160 -60.5 -300.5t-165 -245t-243.5 -164.5t-299 -60t-299 60t-243.5 164.5t-165 245t-60.5 300.5zM563 1927l461 -256l27 45l-463 256z" />
<glyph unicode="&#xd3;" horiz-adv-x="1638" d="M0 793q0 -170 64.5 -318.5t175 -260.5t260 -176.5t319.5 -64.5t319.5 64.5t260 176.5t175 261.5t64.5 319.5v-2q0 170 -64.5 319.5t-175 261t-260 176t-319.5 64.5t-319.5 -64.5t-260 -176t-175 -261t-64.5 -319.5zM51 795q0 160 60.5 299t165 243.5t243.5 165t299 60.5 t299 -60.5t243.5 -165t165 -245t60.5 -299.5v2q0 -160 -60.5 -300.5t-165 -245t-243.5 -164.5t-299 -60t-299 60t-243.5 164.5t-165 245t-60.5 300.5zM588 1714l26 -43l461 256l-26 45z" />
<glyph unicode="&#xd4;" horiz-adv-x="1638" d="M0 793q0 -170 64.5 -318.5t175 -260.5t260 -176.5t319.5 -64.5t319.5 64.5t260 176.5t175 261.5t64.5 319.5v-2q0 170 -64.5 319.5t-175 261t-260 176t-319.5 64.5t-319.5 -64.5t-260 -176t-175 -261t-64.5 -319.5zM51 795q0 160 60.5 299t165 243.5t243.5 165t299 60.5 t299 -60.5t243.5 -165t165 -245t60.5 -299.5v2q0 -160 -60.5 -300.5t-165 -245t-243.5 -164.5t-299 -60t-299 60t-243.5 164.5t-165 245t-60.5 300.5zM512 1714l33 -39l274 230l275 -230l32 41l-307 256z" />
<glyph unicode="&#xd5;" horiz-adv-x="1638" d="M0 793q0 -170 64.5 -318.5t175 -260.5t260 -176.5t319.5 -64.5t319.5 64.5t260 176.5t175 261.5t64.5 319.5v-2q0 170 -64.5 319.5t-175 261t-260 176t-319.5 64.5t-319.5 -64.5t-260 -176t-175 -261t-64.5 -319.5zM51 795q0 160 60.5 299t165 243.5t243.5 165t299 60.5 t299 -60.5t243.5 -165t165 -245t60.5 -299.5v2q0 -160 -60.5 -300.5t-165 -245t-243.5 -164.5t-299 -60t-299 60t-243.5 164.5t-165 245t-60.5 300.5zM512 1767h51v25q0 18 23.5 48t79.5 30q37 0 71.5 -24.5t71.5 -53.5t77 -53.5t87 -24.5q37 0 65.5 12.5t48 32t29.5 42 t10 42.5v27h-51v-27q0 -18 -23.5 -48t-78.5 -30q-37 0 -73 25t-72.5 53.5t-76.5 53t-85 24.5q-37 0 -66 -12.5t-48.5 -31.5t-29.5 -42t-10 -43v-25z" />
<glyph unicode="&#xd6;" horiz-adv-x="1638" d="M0 793q0 -170 64.5 -318.5t175 -260.5t260 -176.5t319.5 -64.5t319.5 64.5t260 176.5t175 261.5t64.5 319.5v-2q0 170 -64.5 319.5t-175 261t-260 176t-319.5 64.5t-319.5 -64.5t-260 -176t-175 -261t-64.5 -319.5zM51 795q0 160 60.5 299t165 243.5t243.5 165t299 60.5 t299 -60.5t243.5 -165t165 -245t60.5 -299.5v2q0 -160 -60.5 -300.5t-165 -245t-243.5 -164.5t-299 -60t-299 60t-243.5 164.5t-165 245t-60.5 300.5zM512 1765q0 -20 14.5 -35.5t36.5 -15.5q23 0 37 15t14 38q0 20 -14 36t-37 16t-37 -15.5t-14 -38.5zM1024 1765 q0 -20 14.5 -35.5t36.5 -15.5q23 0 37 15t14 38q0 20 -14 36t-37 16t-37 -15.5t-14 -38.5z" />
<glyph unicode="&#xd8;" horiz-adv-x="1689" d="M25 0h73l191 193q111 -102 252 -161t305 -59q168 0 317.5 64.5t261 176.5t176 261.5t64.5 319.5q0 164 -60.5 308t-166.5 255l227 229h-74l-190 -192q-111 102 -252 160.5t-305 58.5q-170 0 -318.5 -64.5t-260 -176t-176 -261t-64.5 -319.5q0 -164 60 -308.5t167 -255.5z M76 795q0 160 60.5 299t165 243.5t244.5 165t300 60.5q152 0 284 -54.5t236 -150.5l-1079 -1092q-98 104 -154.5 239.5t-56.5 289.5zM324 229l1079 1092q98 -104 154.5 -239.5t56.5 -288.5l-2 2q0 -160 -60.5 -300.5t-164 -245t-243.5 -164.5t-300 -60q-152 0 -284 54 t-236 150z" />
<glyph unicode="&#xd9;" horiz-adv-x="1382" d="M76 588q0 -127 48 -238.5t132 -195.5t196.5 -132.5t239.5 -48.5t238.5 48.5t195.5 132.5t132.5 196.5t48.5 239.5v-2v999h-54v-999q0 -117 -44 -219.5t-120.5 -179t-179 -120.5t-219.5 -44t-219 44t-179 120.5t-121 180t-44 220.5v997h-51v-999zM436 1927l461 -256l25 45 l-461 256z" />
<glyph unicode="&#xda;" horiz-adv-x="1382" d="M76 588q0 -127 48 -238.5t132 -195.5t196.5 -132.5t239.5 -48.5t238.5 48.5t195.5 132.5t132.5 196.5t48.5 239.5v-2v999h-54v-999q0 -117 -44 -219.5t-120.5 -179t-179 -120.5t-219.5 -44t-219 44t-179 120.5t-121 180t-44 220.5v997h-51v-999zM461 1714l24 -43l461 256 l-24 45z" />
<glyph unicode="&#xdb;" horiz-adv-x="1382" d="M76 588q0 -127 48 -238.5t132 -195.5t196.5 -132.5t239.5 -48.5t238.5 48.5t195.5 132.5t132.5 196.5t48.5 239.5v-2v999h-54v-999q0 -117 -44 -219.5t-120.5 -179t-179 -120.5t-219.5 -44t-219 44t-179 120.5t-121 180t-44 220.5v997h-51v-999zM383 1714l35 -39l274 230 l273 -230l34 41l-309 256z" />
<glyph unicode="&#xdc;" horiz-adv-x="1382" d="M76 588q0 -127 48 -238.5t132 -195.5t196.5 -132.5t239.5 -48.5t238.5 48.5t195.5 132.5t132.5 196.5t48.5 239.5v-2v999h-54v-999q0 -117 -44 -219.5t-120.5 -179t-179 -120.5t-219.5 -44t-219 44t-179 120.5t-121 180t-44 220.5v997h-51v-999zM383 1765 q0 -20 15.5 -35.5t37.5 -15.5q20 0 35.5 15.5t15.5 37.5h-2q0 20 -14 36t-37 16q-20 0 -35.5 -15.5t-15.5 -38.5zM895 1765q0 -20 15.5 -35.5t37.5 -15.5q20 0 35.5 15t15.5 38q0 20 -15 36t-38 16q-20 0 -35.5 -15.5t-15.5 -38.5z" />
<glyph unicode="&#xdf;" horiz-adv-x="1050" d="M0 1126h154v-1204h51v1385q0 53 20.5 99t55 81t81 55.5t99.5 20.5t99 -20.5t81 -55.5t55.5 -82t20.5 -100t-20.5 -99.5t-55.5 -81t-81 -55t-99 -20.5v-52q100 0 189 -37.5t154.5 -104.5t104.5 -155t39 -188t-39 -189.5t-104.5 -155t-154.5 -104t-189 -38.5v-52 q111 0 209 42t171.5 116t115.5 172t42 209q0 94 -29.5 178t-84 152.5t-127 118t-158.5 71.5q76 37 122 109.5t46 165.5q0 63 -24.5 118.5t-65.5 97.5t-97.5 66.5t-119.5 24.5t-119.5 -24.5t-97.5 -66.5t-65.5 -98.5t-24.5 -119.5v-127h-154v-52z" />
<glyph unicode="&#xe0;" horiz-adv-x="1306" d="M0 588q0 -127 48 -238.5t131 -195.5t195.5 -132.5t239.5 -48.5q94 0 181.5 28t160 77t130 116.5t92.5 147.5v-342h51v1178h-51v-342q-35 80 -92.5 147.5t-130 116.5t-159.5 76.5t-182 27.5q-127 0 -239.5 -48t-195.5 -132t-131 -196.5t-48 -239.5zM51 590q0 117 44 219 t121 179t179.5 121t218.5 44q117 0 219.5 -45t179.5 -122t121 -179t44 -219v2q0 -117 -44 -220.5t-121 -180t-179.5 -120.5t-219.5 -44t-219 44t-179 120.5t-121 180t-44 220.5zM358 1569l461 -256l27 45l-463 256z" />
<glyph unicode="&#xe1;" horiz-adv-x="1306" d="M0 588q0 -127 48 -238.5t131 -195.5t195.5 -132.5t239.5 -48.5q94 0 181.5 28t160 77t130 116.5t92.5 147.5v-342h51v1178h-51v-342q-35 80 -92.5 147.5t-130 116.5t-159.5 76.5t-182 27.5q-127 0 -239.5 -48t-195.5 -132t-131 -196.5t-48 -239.5zM51 590q0 117 44 219 t121 179t179.5 121t218.5 44q117 0 219.5 -45t179.5 -122t121 -179t44 -219v2q0 -117 -44 -220.5t-121 -180t-179.5 -120.5t-219.5 -44t-219 44t-179 120.5t-121 180t-44 220.5zM383 1356l27 -43l460 256l-26 45z" />
<glyph unicode="&#xe2;" horiz-adv-x="1306" d="M0 588q0 -127 48 -238.5t131 -195.5t195.5 -132.5t239.5 -48.5q94 0 181.5 28t160 77t130 116.5t92.5 147.5v-342h51v1178h-51v-342q-35 80 -92.5 147.5t-130 116.5t-159.5 76.5t-182 27.5q-127 0 -239.5 -48t-195.5 -132t-131 -196.5t-48 -239.5zM51 590q0 117 44 219 t121 179t179.5 121t218.5 44q117 0 219.5 -45t179.5 -122t121 -179t44 -219v2q0 -117 -44 -220.5t-121 -180t-179.5 -120.5t-219.5 -44t-219 44t-179 120.5t-121 180t-44 220.5zM307 1356l33 -39l274 229l275 -229l33 41l-308 256z" />
<glyph unicode="&#xe3;" horiz-adv-x="1306" d="M0 588q0 -127 48 -238.5t131 -195.5t195.5 -132.5t239.5 -48.5q94 0 181.5 28t160 77t130 116.5t92.5 147.5v-342h51v1178h-51v-342q-35 80 -92.5 147.5t-130 116.5t-159.5 76.5t-182 27.5q-127 0 -239.5 -48t-195.5 -132t-131 -196.5t-48 -239.5zM51 590q0 117 44 219 t121 179t179.5 121t218.5 44q117 0 219.5 -45t179.5 -122t121 -179t44 -219v2q0 -117 -44 -220.5t-121 -180t-179.5 -120.5t-219.5 -44t-219 44t-179 120.5t-121 180t-44 220.5zM307 1460h51v25q0 18 24 48t79 30q37 0 71.5 -25t71.5 -53.5t77 -53t87 -24.5q37 0 65.5 12.5 t48 31.5t30 42t10.5 43v27h-52v-27q0 -18 -23.5 -48t-78.5 -30q-37 0 -73 24.5t-72.5 53.5t-76.5 53.5t-85 24.5q-37 0 -65.5 -12.5t-48 -32t-30 -42t-10.5 -42.5v-25z" />
<glyph unicode="&#xe4;" horiz-adv-x="1306" d="M0 588q0 -127 48 -238.5t131 -195.5t195.5 -132.5t239.5 -48.5q94 0 181.5 28t160 77t130 116.5t92.5 147.5v-342h51v1178h-51v-342q-35 80 -92.5 147.5t-130 116.5t-159.5 76.5t-182 27.5q-127 0 -239.5 -48t-195.5 -132t-131 -196.5t-48 -239.5zM51 590q0 117 44 219 t121 179t179.5 121t218.5 44q117 0 219.5 -45t179.5 -122t121 -179t44 -219v2q0 -117 -44 -220.5t-121 -180t-179.5 -120.5t-219.5 -44t-219 44t-179 120.5t-121 180t-44 220.5zM307 1561q0 -20 14.5 -36t36.5 -16q23 0 37.5 15.5t14.5 38.5q0 20 -14.5 35.5t-37.5 15.5 t-37 -15.5t-14 -37.5zM819 1561q0 -20 14.5 -36t36.5 -16q23 0 37.5 15.5t14.5 38.5q0 20 -14.5 35.5t-37.5 15.5t-37 -15.5t-14 -37.5z" />
<glyph unicode="&#xe5;" horiz-adv-x="1306" d="M0 588q0 -127 48 -238.5t131 -195.5t195.5 -132.5t239.5 -48.5q94 0 181.5 28t160 77t130 116.5t92.5 147.5v-342h51v1178h-51v-342q-35 80 -92.5 147.5t-130 116.5t-159.5 76.5t-182 27.5q-127 0 -239.5 -48t-195.5 -132t-131 -196.5t-48 -239.5zM51 590q0 117 44 219 t121 179t179.5 121t218.5 44q117 0 219.5 -45t179.5 -122t121 -179t44 -219t-44 -219.5t-121 -179t-179.5 -120.5t-219.5 -44t-219 44t-179 120.5t-121 180t-44 220.5zM461 1458q0 -63 45 -108t108 -45t108.5 44.5t45.5 110.5q0 63 -45 108.5t-109 45.5q-63 0 -108 -45 t-45 -111zM512 1460q0 41 29.5 72t72.5 31t73 -31t30 -74v2q0 -43 -30 -73.5t-73 -30.5t-72.5 30.5t-29.5 73.5z" />
<glyph unicode="&#xe6;" horiz-adv-x="2406" d="M0 588q0 -127 48 -238.5t131 -195.5t195.5 -132.5t239.5 -48.5q94 0 181.5 28t160 77t130 116.5t92.5 147.5v-342h51v342q35 -80 92 -147.5t130 -116.5t160 -77t181 -28q96 0 183 28t161 79t131 119.5t92 152.5l-47 21q-33 -78 -85 -141.5t-119.5 -109.5t-147.5 -71.5 t-168 -25.5q-115 0 -214 42t-175 114.5t-122 171t-52 210.5h1177v27q0 127 -48 238.5t-131 195.5t-195.5 132t-239.5 48q-94 0 -181 -27.5t-160 -76.5t-130 -117t-92 -147v342h-51v-342q-35 80 -92.5 147.5t-130 116.5t-159.5 76.5t-182 27.5q-127 0 -239.5 -48t-195.5 -132 t-131 -196.5t-48 -239.5zM51 590q0 117 44 219t121 179t179.5 121t218.5 44q117 0 219.5 -45t179.5 -122t121 -179t44 -219t-44 -219.5t-121 -179t-179.5 -120.5t-219.5 -44t-219 44t-179 120.5t-121 180t-44 220.5zM1229 614q6 113 52 211.5t122 171t175 114.5t214 42 q113 0 213 -42t176 -114.5t122 -171t52 -211.5h-1126z" />
<glyph unicode="&#xe7;" horiz-adv-x="1099" d="M0 588q0 -123 46 -232.5t126 -192.5t187.5 -133t230.5 -55v-155l28 -29q31 31 74 31q41 0 72 -31t31 -74q0 -63 -45 -108t-111 -45q-41 0 -71.5 30.5t-30.5 73.5h-52q0 -66 45 -110.5t111 -44.5q43 0 80 16t64.5 44t44 65.5t16.5 80.5q0 63 -45 108.5t-111 45.5 q-25 0 -51 -10v112q121 4 226.5 52.5t183.5 126.5l-37 36q-76 -78 -178.5 -121.5t-219.5 -43.5t-219 44t-179 120.5t-121 180t-44 220.5t44 219t121 179t179.5 121t218.5 44q117 0 219.5 -44t178.5 -122l37 37q-84 84 -195 132t-240 48q-127 0 -239.5 -48t-195.5 -132 t-131 -196.5t-48 -239.5z" />
<glyph unicode="&#xe8;" d="M0 588q0 -127 48 -238.5t131 -195.5t195.5 -132.5t239.5 -48.5q96 0 183.5 28t161 79t131 119.5t92.5 152.5l-47 21q-33 -78 -85.5 -141.5t-120 -109.5t-147.5 -71.5t-168 -25.5q-115 0 -214 42t-174.5 114.5t-122 171t-52.5 210.5h1178v27q0 127 -48 238.5t-131 195.5 t-196 132t-240 48t-239.5 -48t-195.5 -132t-131 -196.5t-48 -239.5zM51 614q6 113 52.5 211.5t122 171t175 114.5t213.5 42q113 0 213.5 -42t176 -114.5t122 -171t52.5 -211.5h-1127zM358 1569l461 -256l27 45l-463 256z" />
<glyph unicode="&#xe9;" d="M0 588q0 -127 48 -238.5t131 -195.5t195.5 -132.5t239.5 -48.5q96 0 183.5 28t161 79t131 119.5t92.5 152.5l-47 21q-33 -78 -85.5 -141.5t-120 -109.5t-147.5 -71.5t-168 -25.5q-115 0 -214 42t-174.5 114.5t-122 171t-52.5 210.5h1178v27q0 127 -48 238.5t-131 195.5 t-196 132t-240 48t-239.5 -48t-195.5 -132t-131 -196.5t-48 -239.5zM51 614q6 113 52.5 211.5t122 171t175 114.5t213.5 42q113 0 213.5 -42t176 -114.5t122 -171t52.5 -211.5h-1127zM383 1356l27 -43l460 256l-26 45z" />
<glyph unicode="&#xea;" d="M0 588q0 -127 48 -238.5t131 -195.5t195.5 -132.5t239.5 -48.5q96 0 183.5 28t161 79t131 119.5t92.5 152.5l-47 21q-33 -78 -85.5 -141.5t-120 -109.5t-147.5 -71.5t-168 -25.5q-115 0 -214 42t-174.5 114.5t-122 171t-52.5 210.5h1178v27q0 127 -48 238.5t-131 195.5 t-196 132t-240 48t-239.5 -48t-195.5 -132t-131 -196.5t-48 -239.5zM51 614q6 113 52.5 211.5t122 171t175 114.5t213.5 42q113 0 213.5 -42t176 -114.5t122 -171t52.5 -211.5h-1127zM307 1356l33 -39l274 229l275 -229l33 41l-308 256z" />
<glyph unicode="&#xeb;" d="M0 588q0 -127 48 -238.5t131 -195.5t195.5 -132.5t239.5 -48.5q96 0 183.5 28t161 79t131 119.5t92.5 152.5l-47 21q-33 -78 -85.5 -141.5t-120 -109.5t-147.5 -71.5t-168 -25.5q-115 0 -214 42t-174.5 114.5t-122 171t-52.5 210.5h1178v27q0 127 -48 238.5t-131 195.5 t-196 132t-240 48t-239.5 -48t-195.5 -132t-131 -196.5t-48 -239.5zM51 614q6 113 52.5 211.5t122 171t175 114.5t213.5 42q113 0 213.5 -42t176 -114.5t122 -171t52.5 -211.5h-1127zM307 1561q0 -20 14.5 -36t36.5 -16q23 0 37.5 15.5t14.5 38.5q0 20 -14.5 35.5 t-37.5 15.5t-37 -15.5t-14 -37.5zM819 1561q0 -20 14.5 -36t36.5 -16q23 0 37.5 15.5t14.5 38.5q0 20 -14.5 35.5t-37.5 15.5t-37 -15.5t-14 -37.5z" />
<glyph unicode="&#xec;" horiz-adv-x="256" d="M-129 1569l463 -256l24 45l-460 256zM102 0h52v1178h-52v-1178z" />
<glyph unicode="&#xed;" horiz-adv-x="256" d="M-102 1356l24 -43l461 256l-25 45zM102 0h52v1178h-52v-1178z" />
<glyph unicode="&#xee;" horiz-adv-x="256" d="M-180 1356l35 -39l274 229l272 -229l35 41l-309 256zM102 0h52v1178h-52v-1178z" />
<glyph unicode="&#xef;" horiz-adv-x="256" d="M-102 1561q0 -20 14 -36t37 -16t37 15.5t14 38.5q0 20 -14.5 35.5t-36.5 15.5q-23 0 -37 -15.5t-14 -37.5zM102 0h52v1178h-52v-1178zM256 1561q0 -20 14.5 -36t36.5 -16q23 0 37 15.5t14 38.5q0 20 -14 35.5t-37 15.5t-37 -15.5t-14 -37.5z" />
<glyph unicode="&#xf1;" horiz-adv-x="1177" d="M76 0h53v692q0 94 36 178t98.5 147.5t146.5 99.5t180 36q94 0 178 -36t147.5 -99.5t99.5 -147.5t36 -180v-690h51v692q0 106 -40 199.5t-109.5 163t-164 109.5t-200.5 40q-76 0 -145.5 -21.5t-129 -59.5t-107.5 -91t-79 -117v263h-51v-1178zM256 1460h51v25q0 18 23.5 48 t79.5 30q37 0 71.5 -25t71.5 -53.5t77 -53t87 -24.5q37 0 65.5 12.5t48 31.5t29.5 42t10 43v27h-51v-27q0 -18 -23.5 -48t-78.5 -30q-37 0 -73 24.5t-72.5 53.5t-76.5 53.5t-85 24.5q-37 0 -66 -12.5t-48.5 -32t-29.5 -42t-10 -42.5v-25z" />
<glyph unicode="&#xf2;" d="M0 588q0 -127 48 -238.5t131 -195.5t195.5 -132.5t239.5 -48.5t240 48.5t196 132.5t131 196.5t48 239.5v-2q0 127 -48 239.5t-131 196.5t-196 132t-240 48t-239.5 -48t-195.5 -132t-131 -196.5t-48 -239.5zM51 590q0 117 44 219t121 179t179.5 121t218.5 44 q117 0 219.5 -45t179.5 -122t121 -179t44 -219v2q0 -117 -44 -220.5t-121 -180t-179.5 -120.5t-219.5 -44t-219 44t-179 120.5t-121 180t-44 220.5zM358 1569l461 -256l27 45l-463 256z" />
<glyph unicode="&#xf3;" d="M0 588q0 -127 48 -238.5t131 -195.5t195.5 -132.5t239.5 -48.5t240 48.5t196 132.5t131 196.5t48 239.5v-2q0 127 -48 239.5t-131 196.5t-196 132t-240 48t-239.5 -48t-195.5 -132t-131 -196.5t-48 -239.5zM51 590q0 117 44 219t121 179t179.5 121t218.5 44 q117 0 219.5 -45t179.5 -122t121 -179t44 -219v2q0 -117 -44 -220.5t-121 -180t-179.5 -120.5t-219.5 -44t-219 44t-179 120.5t-121 180t-44 220.5zM383 1356l27 -43l460 256l-26 45z" />
<glyph unicode="&#xf4;" d="M0 588q0 -127 48 -238.5t131 -195.5t195.5 -132.5t239.5 -48.5t240 48.5t196 132.5t131 196.5t48 239.5v-2q0 127 -48 239.5t-131 196.5t-196 132t-240 48t-239.5 -48t-195.5 -132t-131 -196.5t-48 -239.5zM51 590q0 117 44 219t121 179t179.5 121t218.5 44 q117 0 219.5 -45t179.5 -122t121 -179t44 -219v2q0 -117 -44 -220.5t-121 -180t-179.5 -120.5t-219.5 -44t-219 44t-179 120.5t-121 180t-44 220.5zM307 1356l33 -39l274 229l275 -229l33 41l-308 256z" />
<glyph unicode="&#xf5;" d="M0 588q0 -127 48 -238.5t131 -195.5t195.5 -132.5t239.5 -48.5t240 48.5t196 132.5t131 196.5t48 239.5v-2q0 127 -48 239.5t-131 196.5t-196 132t-240 48t-239.5 -48t-195.5 -132t-131 -196.5t-48 -239.5zM51 590q0 117 44 219t121 179t179.5 121t218.5 44 q117 0 219.5 -45t179.5 -122t121 -179t44 -219v2q0 -117 -44 -220.5t-121 -180t-179.5 -120.5t-219.5 -44t-219 44t-179 120.5t-121 180t-44 220.5zM307 1460h51v25q0 18 24 48t79 30q37 0 71.5 -25t71.5 -53.5t77 -53t87 -24.5q37 0 65.5 12.5t48 31.5t30 42t10.5 43v27 h-52v-27q0 -18 -23.5 -48t-78.5 -30q-37 0 -73 24.5t-72.5 53.5t-76.5 53.5t-85 24.5q-37 0 -65.5 -12.5t-48 -32t-30 -42t-10.5 -42.5v-25z" />
<glyph unicode="&#xf6;" d="M0 588q0 -127 48 -238.5t131 -195.5t195.5 -132.5t239.5 -48.5t240 48.5t196 132.5t131 196.5t48 239.5v-2q0 127 -48 239.5t-131 196.5t-196 132t-240 48t-239.5 -48t-195.5 -132t-131 -196.5t-48 -239.5zM51 590q0 117 44 219t121 179t179.5 121t218.5 44 q117 0 219.5 -45t179.5 -122t121 -179t44 -219v2q0 -117 -44 -220.5t-121 -180t-179.5 -120.5t-219.5 -44t-219 44t-179 120.5t-121 180t-44 220.5zM307 1561q0 -20 14.5 -36t36.5 -16q23 0 37.5 15.5t14.5 38.5q0 20 -14.5 35.5t-37.5 15.5t-37 -15.5t-14 -37.5zM819 1561 q0 -20 14.5 -36t36.5 -16q23 0 37.5 15.5t14.5 38.5q0 20 -14.5 35.5t-37.5 15.5t-37 -15.5t-14 -37.5z" />
<glyph unicode="&#xf7;" horiz-adv-x="921" d="M51 768h819v51h-819v-51zM410 485q0 -20 14 -35.5t37 -15.5t37 15.5t14 37.5v-2q0 23 -14.5 38.5t-36.5 15.5q-23 0 -37 -15.5t-14 -38.5zM410 1100q0 -20 14 -35.5t37 -15.5t37 15t14 38q0 20 -14.5 35.5t-36.5 15.5q-23 0 -37 -15.5t-14 -37.5z" />
<glyph unicode="&#xf8;" d="M0 0h72l131 133q82 -74 187.5 -117t223.5 -43q127 0 240 48.5t196 132.5t131 196.5t48 239.5q0 123 -44 229.5t-122 190.5l166 168h-72l-131 -134q-82 74 -187.5 117t-224.5 43q-127 0 -239.5 -48t-195.5 -132t-131 -196.5t-48 -239.5q0 -123 44 -229.5t122 -190.5z M51 590q0 117 44 219t121 179t179.5 121t218.5 44q111 0 206 -38.5t171 -106.5l-788 -803q-72 76 -112 174t-40 211zM238 170l788 803q72 -76 112 -174.5t40 -210.5v2q0 -117 -44 -220.5t-121 -180t-179.5 -120.5t-219.5 -44q-111 0 -206 38.5t-170 106.5z" />
<glyph unicode="&#xf9;" horiz-adv-x="1177" d="M76 485q0 -106 40 -199t109.5 -163t163.5 -110t201 -40q76 0 145.5 21.5t129 59.5t107.5 91.5t79 116.5v-262h51v1178h-53v-693q0 -96 -36 -179t-98.5 -146.5t-146.5 -99t-180 -35.5t-179 35.5t-146.5 99t-99.5 147.5t-36 180v691h-51v-693zM358 1569l461 -256l27 45 l-463 256z" />
<glyph unicode="&#xfa;" horiz-adv-x="1177" d="M76 485q0 -106 40 -199t109.5 -163t163.5 -110t201 -40q76 0 145.5 21.5t129 59.5t107.5 91.5t79 116.5v-262h51v1178h-53v-693q0 -96 -36 -179t-98.5 -146.5t-146.5 -99t-180 -35.5t-179 35.5t-146.5 99t-99.5 147.5t-36 180v691h-51v-693zM383 1356l27 -43l460 256 l-26 45z" />
<glyph unicode="&#xfb;" horiz-adv-x="1177" d="M76 485q0 -106 40 -199t109.5 -163t163.5 -110t201 -40q76 0 145.5 21.5t129 59.5t107.5 91.5t79 116.5v-262h51v1178h-53v-693q0 -96 -36 -179t-98.5 -146.5t-146.5 -99t-180 -35.5t-179 35.5t-146.5 99t-99.5 147.5t-36 180v691h-51v-693zM281 1356l34 -39l275 229 l272 -229l35 41l-309 256z" />
<glyph unicode="&#xfc;" horiz-adv-x="1177" d="M76 485q0 -106 40 -199t109.5 -163t163.5 -110t201 -40q76 0 145.5 21.5t129 59.5t107.5 91.5t79 116.5v-262h51v1178h-53v-693q0 -96 -36 -179t-98.5 -146.5t-146.5 -99t-180 -35.5t-179 35.5t-146.5 99t-99.5 147.5t-36 180v691h-51v-693zM281 1561q0 -20 15 -36 t38 -16q20 0 35.5 15.5t15.5 38.5h-2q0 20 -14.5 35.5t-36.5 15.5q-20 0 -35.5 -15.5t-15.5 -37.5zM793 1561q0 -20 15 -36t38 -16q20 0 35.5 15.5t15.5 38.5q0 20 -15.5 35.5t-37.5 15.5q-20 0 -35.5 -15.5t-15.5 -37.5z" />
<glyph unicode="&#xff;" horiz-adv-x="1126" d="M25 1178l512 -1178l-246 -563h55l756 1741h-58l-481 -1117l-481 1117h-57zM281 1561q0 -20 15 -36t38 -16q20 0 35.5 15.5t15.5 38.5h-2q0 20 -14.5 35.5t-36.5 15.5q-20 0 -35.5 -15.5t-15.5 -37.5zM793 1561q0 -20 15 -36t38 -16q20 0 35.5 15.5t15.5 38.5 q0 20 -15.5 35.5t-37.5 15.5q-20 0 -35.5 -15.5t-15.5 -37.5z" />
<glyph unicode="&#x152;" horiz-adv-x="2535" d="M51 793q0 -170 64.5 -318.5t175 -260.5t260 -176.5t319.5 -64.5q131 0 252 40t220.5 111t176 169t119.5 215v-508h846v51h-794v768h692v51h-692v666h743v51h-795v-508q-43 117 -119.5 215.5t-176 169t-220.5 110.5t-252 40q-170 0 -319.5 -64.5t-260 -176t-175 -261 t-64.5 -319.5zM102 795q0 160 60.5 299t165 243.5t244 165t298.5 60.5q160 0 299.5 -60.5t244 -165t164.5 -245t60 -299.5v2q0 -160 -60 -300.5t-164.5 -245t-244 -164.5t-299.5 -60t-299 60t-243.5 164.5t-165 245t-60.5 300.5z" />
<glyph unicode="&#x153;" horiz-adv-x="2508" d="M51 588q0 -127 48 -238.5t131 -195.5t196 -132.5t240 -48.5q104 0 198 33t172 92.5t134.5 139t84.5 176.5q27 -96 83.5 -176t134 -139.5t172 -92.5t198.5 -33q96 0 183.5 28t161 79t131 119.5t91.5 152.5l-47 21q-33 -78 -85 -141.5t-119.5 -109.5t-147.5 -71.5 t-168 -25.5q-115 0 -214 42t-175 114.5t-122 171t-52 210.5h1178v27q0 127 -48.5 238.5t-131.5 195.5t-195.5 132t-239.5 48q-104 0 -198.5 -32.5t-172 -92t-134 -140.5t-85.5 -175q-29 94 -84 175t-133 140.5t-172 92t-198 32.5q-127 0 -240 -48t-196 -132t-131 -196.5 t-48 -239.5zM102 590q0 117 44 219t121 179t179.5 121t219.5 44t219 -45t179 -122t121 -179t44 -219t-44 -219.5t-121 -179t-179.5 -120.5t-218.5 -44q-117 0 -219.5 44t-179.5 120.5t-121 180t-44 220.5zM1280 614q6 113 52 211.5t122 171t175.5 114.5t213.5 42 q113 0 213.5 -42t176 -114.5t121.5 -171t52 -211.5h-1126z" />
<glyph unicode="&#x178;" horiz-adv-x="1331" d="M25 1587l616 -846v-741h51v743l615 844h-64l-577 -794l-578 794h-63zM358 1765q0 -20 14.5 -35.5t37.5 -15.5t37 15t14 38q0 20 -14.5 36t-36.5 16q-23 0 -37.5 -15.5t-14.5 -38.5zM870 1765q0 -20 14.5 -35.5t37.5 -15.5t37 15t14 38q0 20 -14.5 36t-36.5 16 q-23 0 -37.5 -15.5t-14.5 -38.5z" />
<glyph unicode="&#x2000;" horiz-adv-x="1011" />
<glyph unicode="&#x2001;" horiz-adv-x="2023" />
<glyph unicode="&#x2002;" horiz-adv-x="1011" />
<glyph unicode="&#x2003;" horiz-adv-x="2023" />
<glyph unicode="&#x2004;" horiz-adv-x="674" />
<glyph unicode="&#x2005;" horiz-adv-x="505" />
<glyph unicode="&#x2006;" horiz-adv-x="337" />
<glyph unicode="&#x2007;" horiz-adv-x="337" />
<glyph unicode="&#x2008;" horiz-adv-x="252" />
<glyph unicode="&#x2009;" horiz-adv-x="404" />
<glyph unicode="&#x200a;" horiz-adv-x="112" />
<glyph unicode="&#x2010;" horiz-adv-x="512" d="M51 768h410v51h-410v-51z" />
<glyph unicode="&#x2011;" horiz-adv-x="512" d="M51 768h410v51h-410v-51z" />
<glyph unicode="&#x2012;" horiz-adv-x="512" d="M51 768h410v51h-410v-51z" />
<glyph unicode="&#x2013;" horiz-adv-x="921" d="M51 768h819v51h-819v-51z" />
<glyph unicode="&#x2014;" horiz-adv-x="1740" d="M51 768h1639v51h-1639v-51z" />
<glyph unicode="&#x2018;" horiz-adv-x="409" d="M154 1331q0 -23 14 -37t37 -14t37 14.5t14 36.5q0 35 -33 49l84 234l-47 16l-102 -280q-4 -12 -4 -19z" />
<glyph unicode="&#x2019;" horiz-adv-x="409" d="M102 1280l48 -18l102 282q2 4 3 8.5t1 10.5q0 20 -14.5 35.5t-36.5 15.5q-23 0 -37 -15.5t-14 -37.5q0 -16 9 -29.5t23 -18.5z" />
<glyph unicode="&#x201a;" horiz-adv-x="409" d="M102 -256l48 -18l102 282q2 4 3 8.5t1 10.5q0 20 -14.5 35.5t-36.5 15.5q-23 0 -37 -15.5t-14 -37.5q0 -16 9 -29.5t23 -18.5z" />
<glyph unicode="&#x201c;" horiz-adv-x="563" d="M154 1331q0 -23 14 -37t37 -14t37 14.5t14 36.5q0 35 -33 49l84 234l-47 16l-102 -280q-4 -12 -4 -19zM307 1331q0 -23 14.5 -37t36.5 -14q23 0 37.5 14.5t14.5 36.5q0 35 -33 49l84 234l-47 16l-103 -280q-4 -12 -4 -19z" />
<glyph unicode="&#x201d;" horiz-adv-x="563" d="M102 1280l48 -18l102 282q2 4 3 8.5t1 10.5q0 20 -14.5 35.5t-36.5 15.5q-23 0 -37 -15.5t-14 -37.5q0 -16 9 -29.5t23 -18.5zM256 1280l47 -18l103 282q2 4 3 8.5t1 10.5q0 20 -14.5 35.5t-37.5 15.5t-37 -15.5t-14 -37.5q0 -16 9.5 -29.5t23.5 -18.5z" />
<glyph unicode="&#x201e;" horiz-adv-x="409" d="M102 -256l48 -18l102 282q2 4 3 8.5t1 10.5q0 20 -14.5 35.5t-36.5 15.5q-23 0 -37 -15.5t-14 -37.5q0 -16 9 -29.5t23 -18.5zM256 -256l47 -18l103 282q2 4 3 8.5t1 10.5q0 20 -14.5 35.5t-37.5 15.5t-37 -15.5t-14 -37.5q0 -16 9.5 -29.5t23.5 -18.5z" />
<glyph unicode="&#x2022;" horiz-adv-x="512" d="M154 793q0 -41 29.5 -72t72.5 -31t72.5 31t29.5 74q0 41 -29.5 71.5t-72.5 30.5t-72.5 -30.5t-29.5 -73.5z" />
<glyph unicode="&#x2026;" d="M154 25q0 -20 14 -36t37 -16t37 15.5t14 38.5q0 20 -14.5 35.5t-36.5 15.5q-23 0 -37 -15.5t-14 -37.5zM563 25q0 -20 14.5 -36t36.5 -16q23 0 37.5 15.5t14.5 38.5q0 20 -14.5 35.5t-37.5 15.5t-37 -15.5t-14 -37.5zM973 25q0 -20 14 -36t37 -16t37 15.5t14 38.5 q0 20 -14 35.5t-37 15.5t-37 -15.5t-14 -37.5z" />
<glyph unicode="&#x202f;" horiz-adv-x="404" />
<glyph unicode="&#x205f;" horiz-adv-x="505" />
<glyph unicode="&#x2122;" horiz-adv-x="819" d="M25 1561h104v-359h51v361h101v49h-256v-51zM383 1614l2 -412h51v258l137 -258h31l139 258v-258l52 2v410h-31l-176 -334l-174 334h-31z" />
<glyph unicode="&#x25fc;" horiz-adv-x="1177" d="M0 0v1178h1178v-1178h-1178z" />
</font>
</defs>
</svg>
